The.Legend.of.Tarzan.2016.HDTS.XviD-VAiN

DOWNLOAD TORRENT

Posted on July 10, 2016 in Movies » Action , verified torrent

Size: 1.48 GB , Seeds: 576 , Peers: 115 ( Updated September 12, 2016 - Refresh )

Quality: Audio 6/10 - Video 6/10 ( defined by users )

* Download via Magnet Link * To download files you need a Bittorrent Client ,

Scrape History ( seeds + peers )

Internal Files

The.Legend.of.Tarzan.2016.HDTS.XviD-VAiN
The.Legend.of.Tarzan.2016.HDTS.XviD-VAiN.avi   1.47 GB
Torrent Downloaded From peertorrent.com.txt   338 Byte
VAiN.nfo   2.92 KB
sample.avi   12.85 MB

Hash Code

3aa467d01eaf8fbbcd35828f3c07aa91ec028217

Description

SCREENSHOT





http://www.imdb.com/title/tt0918940/





Tarzan, having acclimated to life in London, is called back to his former home in the jungle to investigate the activities at a mining encampment.



Director: David Yates

Writers: Adam Cozad (screenplay), Craig Brewer (screenplay)

Stars: Alexander SkarsgÄrd, Rory J. Saper, Christian Stevens

Genres: Action | Adventure

Country: USA

Language: English





Basic Information

Format : AVI

Format/Info : Audio Video Interleave

File size : 1.47 GiB

Duration : 1h 45mn

Overall bit rate : 1 990 Kbps

Writing application : VirtualDubMod 1.5.10.2 (build 2540/release)

Writing library : VirtualDubMod build 2540/release



Video

ID : 0

Format : MPEG-4 Visual

Format profile : Advanced [email protected]/* */

Format settings, BVOP : 2

Format settings, QPel : No

Format settings, GMC : No warppoints

Format settings, Matrix : Default (H.263)

Muxing mode : Packed bitstream

Codec ID : XVID

Codec ID/Hint : XviD

Duration : 1h 45mn

Bit rate : 1 786 Kbps

Width : 720 pixels

Height : 304 pixels

Display aspect ratio : 2.35:1

Frame rate : 30.000 fps

Color space : YUV

Chroma subsampling : 4:2:0

Bit depth : 8 bits

Scan type : Progressive

Compression mode : Lossy

Bits/(Pixel*Frame) : 0.272

Stream size : 1.32 GiB (90%)

Writing library : XviD 64



Audio

ID : 1

Format : MPEG Audio

Format version : Version 1

Format profile : Layer 3

Mode : Joint stereo

Mode extension : MS Stereo

Codec ID : 55

Codec ID/Hint : MP3

Duration : 1h 45mn

Bit rate mode : Constant

Bit rate : 192 Kbps

Channel(s) : 2 channels

Sampling rate : 48.0 KHz

Compression mode : Lossy

Stream size : 145 MiB (10%)

Alignment : Aligned on interleaves

Interleave, duration : 33 ms (1.00 video frame)

Interleave, preload duratio : 504 ms





E N C O D E R S . N O T E S . . .



SOURCE......: ViDEO...X264-CPG

............: AUDiO...X264-CPG

SAMPLE......: Yippers

ADDED NOTE..: Love Me.... Love You...

Took sum ol' poo-shine and polished this turd....





SCREENSHOT SCREENSHOT SCREENSHOT SCREENSHOT SCREENSHOT SCREENSHOT

Torrent location

https://peertorrent.com/torrent/5033405/The.Legend.of.Tarzan.2016.HDTS.XviD-VAiN.html

Trackers

Refresh Leechers : Updated September 12, 2016

1. udp://tracker.coppersurfer.tk:6969/announce

2. udp://thetracker.org:80/announce

3. udp://tracker.coppersurfer.tk:6969

4. udp://tracker.leechers-paradise.org:6969/announce

5. udp://eddie4.nl:6969/announce

6. udp://zer0day.ch:1337/announce

7. udp://tracker.sktorrent.net:6969/announce

8. udp://9.rarbg.me:2710/announce

9. udp://9.rarbg.to:2710/announce

10. udp://torrent.gresille.org:80/announce

11. udp://tracker.aletorrenty.pl:2710/announce

12. udp://tracker.piratepublic.com:1337/announce

13. udp://tracker.opentrackr.org:1337/announce

14. udp://explodie.org:6969/announce

15. udp://p4p.arenabg.ch:1337/announce

Comments

You must log in to add a comment.

tushar •167 2016-07-11 17:05:31

AUDIO: 6 - VIDEO: 6

Thank you for sharing

Embed Code

Sharing Widget

Related torrents

FILENAME SIZE SEEDS PEERS ADDED UPD
[i]
[i]
The Legend of Tarzan 2016 HD-TS x264-CPG
Movies - Action , Quality: Audio 6/10 - Video 6/10
1.75 GB 1129 180 10 months 5 months
[i]
[i]
The Legend of Tarzan (2016) CAM-Rip [RUSSIAN]
Movies - Adventure , Quality: Audio 7/10 - Video 7/10
1.37 GB 1095 20 10 months 8 months
[i] The Legend of Tarzan (2016) 1080p BluRay - 6CH - 2GB - ShAaNiG 1.98 GB 770 89 8 months 4 weeks
[i] The.Legend.of.Tarzan.2016.HDRip.XViD.AC3-ETRG 1.39 GB 736 257 8 months 6 months
[i] The.Legend.of.Tarzan.2016.BRRip.XViD-ETRG 705.3 MB 235 84 8 months 7 months
[i]
[i]
The Legend of Tarzan - 2016 - CAM - English - x264 - AAC - Makintos13
Movies - Adventure , Quality: Audio 4/10 - Video 4/10
699.07 MB 233 9 10 months 8 months
[i] The Legend of Tarzan 2016 1080p WEB-DL x264 AC3-JYK 3.02 GB 207 10 8 months 7 months
[i] The Legend of Tarzan (2016) HDTS - 550MB - ShAaNiG 557.3 MB 197 14 10 months 8 months
[i] The Legend of Tarzan 2016 720p HC HDRip 800 MB - iExTV 800.3 MB 183 20 9 months 6 months
[i] The.Legend.of.Tarzan.2016.1080p.HDRip.KORSUB.x264.AAC2.0-STUTTERSHIT 3.62 GB 158 46 9 months 9 months

Top Movies ( auto generated report )

FILENAME SIZE SEEDS PEERS ADDED UPD
[i] T2 Trainspotting (2017) [720p] [YTS AG] 860.23 MB 3880 2207 23 hours 44 min
[i] King Arthur and the Knights of the Round Table (2017) [720p] [YTS AG] 664.06 MB 1060 325 5 days 43 min
[i] Albion- The Enchanted Stallion (2016) [720p] [YTS AG] 786 MB 1320 845 5 days 4 days
[i] Colossal.2016.1080p.WEB-DL.AAC2.0.H264-FGT 3.5 GB 1245 2234 21 hours 19 hours
[i] Black.Butterfly.2017.1080p.WEB-DL.DD5.1.H264-FGT 3.22 GB 1235 2118 21 hours 19 hours
[i] Albion- The Enchanted Stallion (2016) [1080p] [YTS AG] 1.62 GB 566 133 5 days 20 min
[i] Molot (2016) [720p] [YTS AG] 818.17 MB 965 588 2 days 1 day
[i] Alien Covenant 2017 720p HDCAM ENG x264-Mr.BADASS 1.21 GB 912 488 3 days 2 days
[i] Johnny English (2003) [1080p] [YTS AG] 1.33 GB 900 385 5 days 4 days
[i] King Arthur and the Knights of the Round Table (2017) [1080p] [YTS AG] 1.36 GB 866 327 5 days 2 days