Bit Torrent Scene a public file sharing platform Home Categories Blog About

advertising ( remove )

The.Legend.of.Tarzan.2016.HDTS.XviD-VAiN

DOWNLOAD TORRENT

Posted on July 10, 2016 in Movies » Action , verified torrent

Size: 1.48 GB , Seeds: 1092 , Peers: 234 ( Updated August 13, 2016 - Refresh )

Quality: Audio 6/10 - Video 6/10 ( defined by users )

* Download via Magnet Link * To download files you need a Bittorrent Client ,

advertising ( remove )

External Info

Trailer | Wikipedia | Other Info

Internal Files

The.Legend.of.Tarzan.2016.HDTS.XviD-VAiN
The.Legend.of.Tarzan.2016.HDTS.XviD-VAiN.avi   1.47 GB
Torrent Downloaded From peertorrent.com.txt   338 Byte
VAiN.nfo   2.92 KB
sample.avi   12.85 MB

Hash Code

3aa467d01eaf8fbbcd35828f3c07aa91ec028217

Description

SCREENSHOT





https://www.imdb.com/title/tt0918940/





Tarzan, having acclimated to life in London, is called back to his former home in the jungle to investigate the activities at a mining encampment.



Director: David Yates

Writers: Adam Cozad (screenplay), Craig Brewer (screenplay)

Stars: Alexander Skarsgård, Rory J. Saper, Christian Stevens

Genres: Action | Adventure

Country: USA

Language: English





Basic Information

Format : AVI

Format/Info : Audio Video Interleave

File size : 1.47 GiB

Duration : 1h 45mn

Overall bit rate : 1 990 Kbps

Writing application : VirtualDubMod 1.5.10.2 (build 2540/release)

Writing library : VirtualDubMod build 2540/release



Video

ID : 0

Format : MPEG-4 Visual

Format profile : Advanced [email protected]/* */

Format settings, BVOP : 2

Format settings, QPel : No

Format settings, GMC : No warppoints

Format settings, Matrix : Default (H.263)

Muxing mode : Packed bitstream

Codec ID : XVID

Codec ID/Hint : XviD

Duration : 1h 45mn

Bit rate : 1 786 Kbps

Width : 720 pixels

Height : 304 pixels

Display aspect ratio : 2.35:1

Frame rate : 30.000 fps

Color space : YUV

Chroma subsampling : 4:2:0

Bit depth : 8 bits

Scan type : Progressive

Compression mode : Lossy

Bits/(Pixel*Frame) : 0.272

Stream size : 1.32 GiB (90%)

Writing library : XviD 64



Audio

ID : 1

Format : MPEG Audio

Format version : Version 1

Format profile : Layer 3

Mode : Joint stereo

Mode extension : MS Stereo

Codec ID : 55

Codec ID/Hint : MP3

Duration : 1h 45mn

Bit rate mode : Constant

Bit rate : 192 Kbps

Channel(s) : 2 channels

Sampling rate : 48.0 KHz

Compression mode : Lossy

Stream size : 145 MiB (10%)

Alignment : Aligned on interleaves

Interleave, duration : 33 ms (1.00 video frame)

Interleave, preload duratio : 504 ms





E N C O D E R S . N O T E S . . .



SOURCE......: ViDEO...X264-CPG

............: AUDiO...X264-CPG

SAMPLE......: Yippers

ADDED NOTE..: Love Me.... Love You...

Took sum ol' poo-shine and polished this turd....





SCREENSHOT SCREENSHOT SCREENSHOT SCREENSHOT SCREENSHOT SCREENSHOT

Torrent location

https://peertorrent.com/torrent/5033405/The.Legend.of.Tarzan.2016.HDTS.XviD-VAiN.html

Scrape History ( seeds + peers )

Trackers

Refresh Leechers : Updated August 13, 2016

1. udp://tracker.coppersurfer.tk:6969/announce

2. udp://thetracker.org:80/announce

3. udp://tracker.coppersurfer.tk:6969

4. udp://tracker.leechers-paradise.org:6969/announce

5. udp://eddie4.nl:6969/announce

6. udp://zer0day.ch:1337/announce

7. udp://tracker.sktorrent.net:6969/announce

8. udp://9.rarbg.me:2710/announce

9. udp://9.rarbg.to:2710/announce

10. udp://torrent.gresille.org:80/announce

11. udp://tracker.aletorrenty.pl:2710/announce

12. udp://tracker.piratepublic.com:1337/announce

13. udp://tracker.opentrackr.org:1337/announce

14. udp://explodie.org:6969/announce

15. udp://p4p.arenabg.ch:1337/announce

Comments

You must log in to add a comment.

tushar •167 2016-07-11 17:05:31

AUDIO: 6 - VIDEO: 6

Thank you for sharing

Embed Code

Sharing Widget

Related torrents

FILENAME SIZE SEEDS PEERS ADDED UPD
[i]
[i]
The Legend of Tarzan 2016 HD-TS x264-CPG
Movies - Action , Quality: Audio 6/10 - Video 6/10
1.75 GB 7445 2223 1 month 1 month
[i] The.Legend.of.Tarzan.2016.HC.HDRip.XviD.AC3-EVO 1.39 GB 6127 1864 3 weeks 1 week
[i] The Legend of Tarzan 2016 720p HC HDRip 800 MB - iExTV 800.3 MB 2303 538 3 weeks 1 week
[i]
[i]
The Legend of Tarzan (2016) CAM-Rip [RUSSIAN]
Movies - Adventure , Quality: Audio 7/10 - Video 7/10
1.37 GB 1902 34 1 month 2 weeks
[i] The Legend of Tarzan (2016) 1080p HC HDRip 1.6GB - MkvCage 1.66 GB 1784 266 3 weeks 1 week
[i] The Legend of Tarzan (2016) HC - 720p HDRiP - 950MB - ShAaNiG 951.3 MB 1267 920 3 weeks 3 weeks
[i]
[i]
The Legend of Tarzan 2016 1080p HDRip KORSUB x264 AAC[PRiME]
Movies - Action , Quality: Audio 10/10 - Video 9/10
3.02 GB 885 142 3 weeks 1 week
[i] The Legend of Tarzan (2016) HC - 1080p HDRiP - 2GB - ShAaNiG 2 GB 871 907 3 weeks 3 weeks
[i]
[i]
The Legend of Tarzan - 2016 - CAM - English - x264 - AAC - Makintos13
Movies - Adventure , Quality: Audio 4/10 - Video 4/10
699.07 MB 551 23 1 month 1 month
[i] The Legend of Tarzan (2016) 720p HC HDRip x264 [Dual-Audio][Hindi - English] ESubs - Downloadhub
posted by downloadhub in Movies - Adventure
968.86 MB 443 225 3 weeks 1 week

Top Movies ( auto generated report )

FILENAME SIZE SEEDS PEERS ADDED UPD
[i] Now.You.See.Me.2.2016.1080p.BluRay.x264.AC3-JYK 2.93 GB 8132 5852 2 days 1 day
[i] Blood.Father.2016.HDRip.XViD-ETRG 711.3 MB 7851 3968 2 days 17 hours
[i] The Conjuring 2 (2016) 720p BluRay - 1.2GB - ShAaNiG 1.2 GB 7125 5490 1 day 17 hours
[i] Jason.Bourne.720p.HDTC.X264-NUKU
Movies - Action , Quality: Audio 8/10 - Video 8/10
2.49 GB 8020 6984 6 hours 4 hours
[i] Jason Bourne (2016) 720p HDTC 850MB - MkvCage 904.3 MB 4312 2138 1 day 13 hours
[i] Blood.Father.2016.720p.WEBRip.x264.AAC-ETRG 662.3 MB 4159 2580 1 day 8 hours
[i] War Dogs 2016 HD-TS x264-CPG 2.1 GB 3948 3105 1 day 7 hours
[i] The.Conjuring.2.2016.720p.BRRip.x264.AAC-ETRG 1004.3 MB 3885 3190 1 day 7 hours
[i] Our.Kind.of.Traitor.2016.HDRip.XviD.AC3-EVO 1.41 GB 3922 4367 6 hours 4 hours
[i] Genius.2016.HDRip.XviD.AC3-EVO 1.39 GB 2250 1125 4 days 3 days
advertising ( remove )