Bit Torrent Scene a public file sharing platform Home Categories Blog About

advertising ( remove )

The.Secret.Life.of.Pets.2016.720P.HDTS.x264.HQ.Hive-CM8

DOWNLOAD TORRENT

Posted on July 22, 2016 in Movies » Animation , verified torrent

Size: 2.64 GB , Seeds: 1368 , Peers: 606 ( Updated August 5, 2016 - Refresh )

* Download via Magnet Link * To download files you need a Bittorrent Client ,

advertising ( remove )

External Info

Trailer | Wikipedia | Other Info

Internal Files

The.Secret.Life.of.Pets.2016.720P.HDTS.x264.HQ.Hive-CM8
The.Secret.Life.of.Pets.2016.720P.HDTS.x264.HQ.Hive-CM8.mkv   2.58 GB
The.Secret.Life.of.Pets.2016.720P.HDTS.x264.HQ.Hive-CM8.nfo   5.2 KB
Torrent Downloaded From peertorrent.com.txt   338 Byte
sample.mkv   63.11 MB

Hash Code

8841b021fd5170d79a47830cec900da37b13bf93

Description

SCREENSHOT





https://www.imdb.com/title/tt2709768/





A terrier named Max's quiet life is upended when his owner takes in Duke, a stray, who Max instantly dislikes.



Directors: Yarrow Cheney, Chris Renaud

Writers: Cinco Paul, Ken Daurio

Stars: Louis C.K., Eric Stonestreet, Kevin Hart

Genres: Animation | Comedy | Family

Country: Japan | USA

Language: English





The.Secret.Life.of.Pets.2016.720P.HDTS.x264.HQ.Hive-CM8



Thx Hive



CM8 Doing It Right The First Time



Sources:



Video: 1080p HDCAM (cpg/daddy)

Audio: English Direct Line (cpg/daddy)

thx





Notes:

yep am still around if something needs to be fixed, and this one needed lots of work

Cam quality was damned perfect technically

first mins of the minion intro was oos from 12 up to 45 seconds since they were merged with different framerates,

5mins in theire was a 2minute video looping, wtf

both videos suffered from different interlace problems.

video was skewed



Encode:

fixed perspective

downsized to 720p - looks waybetter and more crisp

removed the interlaced frames from both videos

removed the video looping

fixed framerate for the intro video

fixed brightness,contrast,rgb relation,added sharpness

resynced audio

cleaned audio

removed cinavia



Quality is tested and optimized to look perfect on a 75" 4K TV.



got very nice and will do me till retail

enjoy







Video: 1280x672 @bitrate 4000-8000

Audio: English Direct Line AC3 2.0 Stereo

Sample: yes included





https://www.imdb.com/title/tt2709768





General

Complete name : The.Secret.Life.of.Pets.2016.720P.HDTS.x264.HQ.Hive-CM8.mkv

Format : Matroska

Format version : Version 2

File size : 2.58 GiB

Duration : 1h 23mn

Overall bit rate mode : Variable

Overall bit rate : 4 428 Kbps

Encoded date : UTC 2016-07-21 23:09:37

Writing application : mkvmerge v5.6.0 ('Kenya Kane') built on May 27 2012 16:44:04

Writing library : libebml v1.2.3 + libmatroska v1.3.0



Video

ID : 1

Format : AVC

Format/Info : Advanced Video Codec

Format profile : [email protected]/* */

Format settings, CABAC : Yes

Format settings, ReFrames : 4 frames

Format settings, GOP : M=4, N=33

Muxing mode : Header stripping

Codec ID : V_MPEG4/ISO/AVC

Duration : 1h 23mn

Bit rate mode : Variable

Bit rate : 3 892 Kbps

Maximum bit rate : 8 000 Kbps

Width : 1 280 pixels

Height : 672 pixels

Display aspect ratio : 1.905

Frame rate mode : Constant

Frame rate : 25.000 fps

Standard : PAL

Color space : YUV

Chroma subsampling : 4:2:0

Bit depth : 8 bits

Scan type : Progressive

Bits/(Pixel*Frame) : 0.181

Stream size : 2.26 GiB (88%)

Language : English

Default : Yes

Forced : No

Color primaries : BT.709

Transfer characteristics : BT.709

Matrix coefficients : BT.709

Color range : Limited



Audio

ID : 2

Format : AC-3

Format/Info : Audio Coding 3

Mode extension : CM (complete main)

Format settings, Endianness : Big

Muxing mode : Header stripping

Codec ID : A_AC3

Duration : 1h 23mn

Bit rate mode : Constant

Bit rate : 448 Kbps

Channel(s) : 2 channels

Channel positions : Front: L R

Sampling rate : 48.0 KHz

Bit depth : 16 bits

Compression mode : Lossy

Stream size : 267 MiB (10%)

Language : English

Default : Yes

Forced : No





SCREENSHOT SCREENSHOT SCREENSHOT SCREENSHOT SCREENSHOT SCREENSHOT SCREENSHOT SCREENSHOT SCREENSHOT

Torrent location

https://peertorrent.com/torrent/5060576/The.Secret.Life.of.Pets.2016.720P.HDTS.x264.HQ.Hive-CM8.html

Scrape History ( seeds + peers )

Trackers

Refresh Leechers : Updated August 5, 2016

1. udp://tracker.coppersurfer.tk:6969/announce

2. udp://thetracker.org:80/announce

3. udp://tracker.coppersurfer.tk:6969

4. udp://tracker.leechers-paradise.org:6969/announce

5. udp://eddie4.nl:6969/announce

6. udp://zer0day.ch:1337/announce

7. udp://tracker.sktorrent.net:6969/announce

8. udp://9.rarbg.me:2710/announce

9. udp://9.rarbg.to:2710/announce

10. udp://torrent.gresille.org:80/announce

11. udp://tracker.aletorrenty.pl:2710/announce

12. udp://tracker.piratepublic.com:1337/announce

13. udp://tracker.opentrackr.org:1337/announce

14. udp://explodie.org:6969/announce

15. udp://p4p.arenabg.ch:1337/announce

Comments

You must log in to add a comment.

Embed Code

Sharing Widget

Related torrents

FILENAME SIZE SEEDS PEERS ADDED UPD
[i] The Secret Life of Pets 2016 720p HD-TS 600 MB - iExTV 601.3 MB 2383 315 1 month 4 days
[i] The Secret life of Pets NEW HD-TS x264 AC3-DADDY 1.34 GB 1470 2986 1 month 1 month
[i] The Secret Life of Pets 2016 CAM BusyBoyz.[PRiME] 698.07 MB 831 131 1 month 1 month
[i] The Secret Life of Pets (2016) CAM BusyBoyz 698.07 MB 498 117 1 month 1 month
[i] The Secret Life of Pets (2016) 720p HDTS - 700MB - ShAaNiG 701.3 MB 305 32 1 month 4 days
[i] The.Secret.Life.Of.Pets.2016.720p.HDTS.AC3.2.0.x264-BDP 1.88 GB 298 144 1 month 2 days
[i] The.Secret.Life.of.Pets.2016.CAM.XviD-VAiN 711.32 MB 296 97 1 month 5 days
[i] The Secret Life Of Pets 2016 - 720p - HDTS - V2 - 700MB - GoenWae 709.3 MB 200 50 6 days 11 hours
[i]
[i]
The Secret Life of Walter Mitty (2013) 1080p BrRip x264 - YIFY
Movies - Drama , Quality: Audio 9/10 - Video 9/10
1.85 GB 159 11 2 years 5 months
[i] The Secret Life of Pets (2016) 720p HDTS 650MB - MkvCage 653.3 MB 150 20 1 month 3 days

Top Movies ( auto generated report )

FILENAME SIZE SEEDS PEERS ADDED UPD
[i] Now.You.See.Me.2.2016.1080p.BluRay.x264.AC3-JYK 2.93 GB 8132 5852 1 day 19 hours
[i] Blood.Father.2016.HDRip.XViD-ETRG 711.3 MB 7851 3968 2 days 11 hours
[i] The Conjuring 2 (2016) 720p BluRay - 1.2GB - ShAaNiG 1.2 GB 7125 5490 1 day 11 hours
[i] Jason.Bourne.720p.HDTC.X264-NUKU 2.49 GB 6720 6287 45 min 45 min
[i] Jason Bourne (2016) 720p HDTC 850MB - MkvCage 904.3 MB 4312 2138 1 day 7 hours
[i] Blood.Father.2016.720p.WEBRip.x264.AAC-ETRG 662.3 MB 4159 2580 1 day 1 hour
[i] War Dogs 2016 HD-TS x264-CPG 2.1 GB 3948 3105 23 hours 48 min
[i] The.Conjuring.2.2016.720p.BRRip.x264.AAC-ETRG 1004.3 MB 3885 3190 1 day 1 hour
[i] Our.Kind.of.Traitor.2016.HDRip.XviD.AC3-EVO 1.41 GB 3495 4461 44 min 44 min
[i] Genius.2016.HDRip.XviD.AC3-EVO 1.39 GB 2250 1125 4 days 3 days
advertising ( remove )