Bit Torrent Scene a public file sharing platform Home Categories Blog About

advertising ( remove )

The Strain S02E04 The Silver Angel 1080p WEB-DL DD5.1 HEVC/x265-LGC mkv

DOWNLOAD TORRENT

Posted on September 14, 2015 in Series » Misc , verified torrent

Size: 684.57 MB , Seeds: 0 , Peers: 0 ( Updated September 17, 2016 - Refresh )

* Download via Magnet Link * To download files you need a Bittorrent Client ,

advertising ( remove )

Internal Files

The.Strain.S02E04.The.Silver.Angel.1080p.WEB-DL.DD5.1.H.265-LGC.mkv
The.Strain.S02E04.The.Silver.Angel.1080p.WEB-DL.DD5.1.H.265-LGC.mkv   684.37 MB

Hash Code

fae3ef782a7b933d45b82825f093167bfeed9e3f

Description

WARNING: High Efficiency Video Coding HEVC x265



Bit Bigger for Richer Sound



SCREENSHOTThe.Strain.S02E04.The.Silver.Angel.1080p.WEB-DL.DD5.1.H.265-LGC.mkv

Format : Matroska

Format version : Version 2

File size : 684 MiB

Duration : 47mn 25s

Overall bit rate : 2 017 Kbps

Encoded date : UTC

Writing application : HandBrake 0.10.2 2015060900

Writing library : Lavf55.12.0



Video

ID : 1

Format : HEVC

Format/Info : High Efficiency Video Coding

Format profile : [email protected]@Main

Codec ID : V_MPEGH/ISO/HEVC

Duration : 47mn 25s

Bit rate : 1 593 Kbps

Width : 1 920 pixels

Height : 1 088 pixels

Display aspect ratio : 16:9

Frame rate mode : Constant

Frame rate : 23.976 fps

Color space : YUV

Chroma subsampling : 4:2:0

Bit depth : 8 bits

Bits/(Pixel*Frame) : 0.032

Stream size : 540 MiB (79%)

Writing library : x265 1.5:[Windows][GCC 4.9.0][64 bit]

Encoding settings : wpp / ctu=32 / tu-intra-depth=1 / tu-inter-depth=1 / me=1 / subme=1 / merange=57 / no-rect / no-amp / max-merge=2 / temporal-mvp / early-skip / no-fast-cbf / rdpenalty=0 / no-tskip / no-tskip-fast / strong-intra-smoothing / no-lossless / no-cu-lossless / no-constrained-intra / fast-intra / open-gop / interlace=0 / keyint=240 / min-keyint=24 / scenecut=40 / rc-lookahead=15 / bframes=4 / bframe-bias=0 / b-adapt=0 / ref=1 / weightp / no-weightb / aq-mode=1 / aq-strength=1.00 / cbqpoffs=0 / crqpoffs=0 / rd=2 / psy-rd=0.30 / psy-rdoq=0.00 / signhide / lft / sao / no-sao-non-deblock / b-pyramid / no-cutree / rc=2 / pass / bitrate=1630 / qcomp=0.60 / qpmin=0 / qpmax=51 / qpstep=4 / cplxblur=20.0 / qblur=0.5 / ipratio=1.40 / pbratio=1.30

Default : Yes

Forced : No

Color range : Limited

Color primaries : BT.709

Transfer characteristics : BT.709

Matrix coefficients : BT.709



Audio

ID : 2

Format : AC-3

Format/Info : Audio Coding 3

Mode extension : CM (complete main)

Format settings, Endianness : Big

Codec ID : A_AC3

Duration : 47mn 25s

Bit rate mode : Constant

Bit rate : 384 Kbps

Channel(s) : 6 channels

Channel positions : Front: L C R, Side: L R, LFE

Sampling rate : 48.0 KHz

Compression mode : Lossy

Stream size : 130 MiB (19%)

Title : Surround

Language : English

Default : Yes

Forced : No



Text

ID : 3

Format : ASS

Codec ID : S_TEXT/ASS

Codec ID/Info : Advanced Sub Station Alpha

Compression mode : Lossless

Language : English

Default : Yes

Forced : No



SOURCE The.Strain.S02E04.The.Silver.Angel.1080p.WEB-DL.DD5.1.H.264-Juggalotus

Torrent location

https://kat.cr/the-strain-s02e04-the-silver-angel-1080p-web-dl-dd5-1-hevc-x265-lgc-mkv-t11157020.html

Scrape History ( seeds + peers )

Trackers

Refresh Leechers : Updated September 17, 2016

1. udp://open.demonii.com:1337/announce

2. udp://tracker.publicbt.com:80/announce

3. udp://tracker.openbittorrent.com:80/announce

4. udp://tracker.istole.it:80/announce

5. udp://9.rarbg.me:2710/announce

6. udp://tracker.opentrackr.org:1337/announce

Comments

You must log in to add a comment.

Embed Code

Sharing Widget

Related torrents

FILENAME SIZE SEEDS PEERS ADDED UPD
[i] The Strain S02e04, [XviD - Eng Mp3 - Sub Ita Eng] WEBDLrip
posted by MisterX84 in Series - Misc
406.84 MB 4 3 1 year 2 months
[i] The Strain S02E04 HDTV XviD-FUM[ettv] 379.32 MB 4 1 1 year 2 months
[i] The Strain S02E04 480p x264-mSD 208.16 MB 4 0 1 year 7 months
[i] The Strain S02E04 HDTV 480p x264 AAC-VYTO [P2PDL]
posted by VYTO in Series - Misc
171.05 MB 3 2 1 year 2 months
[i] The Strain S02E04 PROPER 720p HDTV x264-2HD [GloDLS] 994 MB 3 0 1 year 2 months
[i] The Strain S02E04 PROPER 720p HDTV HEVC x265-RMTeam [720P][HEVC] 194.54 MB 3 0 1 year 3 weeks
[i] The Strain S02E04 720p HDTV x264-KILLERS[EtHD] 1.12 GB 2 1 1 year 2 months
[i] The Strain S02E04 PROPER 480p x264-mSD 191.83 MB 2 3 1 year 7 months
[i] The Strain S02E04 PROPER 720p HDTV x265 HEVC 200MB - ShAaNiG 200.32 MB 1 1 1 year 2 months
[i] The Strain S02E04 720p HDTV x264-KILLERS[rartv] 1.09 GB 1 2 1 year 2 months

Top Series ( auto generated report )

FILENAME SIZE SEEDS PEERS ADDED UPD
[i] The.Big.Bang.Theory.S10E04.HDTV.x264-LOL[ettv] 132.5 MB 9183 2101 1 day 14 hours
[i] Supergirl.S02E01.HDTV.x264-LOL[ettv] 322.5 MB 8985 2079 1 day 12 hours
[i] Gotham.S03E04.HDTV.x264-LOL[ettv] 194.5 MB 8933 1687 1 day 12 hours
[i] UFC 204 PPV Bisping vs Henderson 2 WEB x264-FMN [TJET] 1.74 GB 4439 1115 3 days 2 days
[i] Westworld.S01E02.HDTV.x264-BATV[ettv] 414.5 MB 3711 910 4 days 3 days
[i] The.Big.Bang.Theory.S10E04.720p.HDTV.X264-DIMENSION[ettv] 470.5 MB 3490 672 1 day 14 hours
[i] Scorpion.S03E03.HDTV.x264-LOL[ettv] 268.5 MB 3228 634 1 day 10 hours
[i] The.Simpsons.S28E03.HDTV.x264-KILLERS[ettv] 144.5 MB 3052 558 2 days 1 day
[i] Once.Upon.a.Time.S06E03.HDTV.x264-FUM[ettv] 314.5 MB 2676 511 2 days 1 day
[i] WWE No Mercy 2016 PPV WEB h264-HEEL [TJET] 1.99 GB 2085 755 2 days 1 day
advertising ( remove )