Bit Torrent Scene a public file sharing platform Home Categories About

Warning! Use a VPN When Downloading Torrents!
Your IP Address is . Location is
Avoid LAWSUITS and FINES! Hide your IP ADDRESS with a VPN!
We strongly recommend using Trust.Zone VPN to anonymize your torrenting. It's FREE!
Get VPN Now for FREE!

The Strain S02E06 Identity 1080p WEB-DL DD5.1 HEVC/x265-LGC mkv

DOWNLOAD TORRENT

Posted on September 14, 2015 in Series » Misc , verified torrent

Size: 632.07 MB , Seeds: 0 , Peers: 0 ( Updated September 17, 2016 - Refresh )

* Download via Magnet Link

Loading...

Scrape History ( seeds + peers )

Internal Files

The.Strain.S02E06.Identity.1080p.WEB-DL.DD5.1.H.265-LGC.mkv
The.Strain.S02E06.Identity.1080p.WEB-DL.DD5.1.H.265-LGC.mkv   631.88 MB

Hash Code

805bad2201f648cb6a82e3b2f9dc7019a456f85b

Description

WARNING: High Efficiency Video Coding HEVC x265



Bit Bigger for Richer Sound



SCREENSHOT



The.Strain.S02E06.Identity.1080p.WEB-DL.DD5.1.H.265-LGC.mkv

Format : Matroska

Format version : Version 2

File size : 632 MiB

Duration : 43mn 50s

Overall bit rate : 2 015 Kbps

Encoded date : UTC

Writing application : HandBrake 0.10.2 2015060900

Writing library : Lavf55.12.0



Video

ID : 1

Format : HEVC

Format/Info : High Efficiency Video Coding

Format profile : [email protected]@Main

Codec ID : V_MPEGH/ISO/HEVC

Duration : 43mn 50s

Bit rate : 1 591 Kbps

Width : 1 920 pixels

Height : 1 088 pixels

Display aspect ratio : 16:9

Frame rate mode : Constant

Frame rate : 23.976 fps

Color space : YUV

Chroma subsampling : 4:2:0

Bit depth : 8 bits

Bits/(Pixel*Frame) : 0.032

Stream size : 499 MiB (79%)

Writing library : x265 1.5:[Windows][GCC 4.9.0][64 bit]

Encoding settings : wpp / ctu=32 / tu-intra-depth=1 / tu-inter-depth=1 / me=0 / subme=0 / merange=25 / no-rect / no-amp / max-merge=2 / temporal-mvp / early-skip / no-fast-cbf / rdpenalty=0 / no-tskip / no-tskip-fast / strong-intra-smoothing / no-lossless / no-cu-lossless / no-constrained-intra / fast-intra / open-gop / interlace=0 / keyint=240 / min-keyint=24 / scenecut=0 / rc-lookahead=10 / bframes=4 / bframe-bias=0 / b-adapt=0 / ref=1 / no-weightp / no-weightb / aq-mode=0 / aq-strength=0.00 / cbqpoffs=0 / crqpoffs=0 / rd=2 / psy-rd=0.30 / psy-rdoq=0.00 / no-signhide / lft / no-sao / no-sao-non-deblock / b-pyramid / no-cutree / rc=2 / pass / bitrate=1630 / qcomp=0.60 / qpmin=0 / qpmax=51 / qpstep=4 / cplxblur=20.0 / qblur=0.5 / ipratio=1.40 / pbratio=1.30

Default : Yes

Forced : No

Color range : Limited

Color primaries : BT.709

Transfer characteristics : BT.709

Matrix coefficients : BT.709



Audio

ID : 2

Format : AC-3

Format/Info : Audio Coding 3

Mode extension : CM (complete main)

Format settings, Endianness : Big

Codec ID : A_AC3

Duration : 43mn 50s

Bit rate mode : Constant

Bit rate : 384 Kbps

Channel(s) : 6 channels

Channel positions : Front: L C R, Side: L R, LFE

Sampling rate : 48.0 KHz

Compression mode : Lossy

Stream size : 120 MiB (19%)

Title : Surround

Language : English

Default : Yes

Forced : No



Text

ID : 3

Format : ASS

Codec ID : S_TEXT/ASS

Codec ID/Info : Advanced Sub Station Alpha

Compression mode : Lossless

Language : English

Default : No

Forced : No



SOURCE: The.Strain.S02E06.Identity.1080p.WEB-DL.DD5.1.H.264-Juggalotus

Torrent location

http://kat.cr/the-strain-s02e06-identity-1080p-web-dl-dd5-1-hevc-x265-lgc-mkv-t11157262.html

Trackers

Refresh Leechers : Updated September 17, 2016

1. udp://open.demonii.com:1337/announce

2. udp://tracker.publicbt.com:80/announce

3. udp://tracker.openbittorrent.com:80/announce

4. udp://tracker.istole.it:80/announce

5. udp://9.rarbg.me:2710/announce

6. udp://tracker.opentrackr.org:1337/announce

Comments

You must log in to add a comment.

Embed Code

Sharing Widget

Related torrents

FILENAME SIZE SEEDS PEERS ADDED UPD
[i] The Strain S02E06 Identity 1080p WEB-DL AAC5.1 HEVC/x265-LGC mkv 573.07 MB 0 0 1 year 6 months

Top Series ( auto generated report )

FILENAME SIZE SEEDS PEERS ADDED UPD
[i] Arrow.S05E17.HDTV.x264-LOL[ettv] 256.5 MB 7498 1474 2 days 1 day
[i] Greys.Anatomy.S13E17.HDTV.x264-LOL[ettv] 248.5 MB 5108 876 1 day 7 hours
[i] Blindspot.S02E16.HDTV.x264-LOL[ettv] 232.5 MB 3742 650 2 days 1 day
[i] Designated.Survivor.S01E13.HDTV.x264-LOL[ettv] 208.5 MB 3352 429 2 days 1 day
[i] Legion.S01E07.WEB-DL.XviD-FUM[ettv] 398.5 MB 3187 946 1 day 22 hours
[i] The.Blacklist.Redemption.S01E05.HDTV.x264-KILLERS[ettv] 248.5 MB 3184 409 1 day 4 hours
[i] The.100.S04E07.WEB-DL.XviD-FUM[ettv] 350.5 MB 3059 916 1 day 22 hours
[i] Marvels.Iron.Fist.S01E01.WEB.X264-DEFLATE[ettv] 468.5 MB 3002 346 1 week 1 day
[i] Legion.S01E06.WEB-DL.XviD-FUM[ettv] 428.5 MB 2482 201 1 week 2 days
[i] Marvels.Iron.Fist.S01E03.WEB.X264-DEFLATE[ettv] 448.5 MB 2402 198 1 week 1 day
advertising ( remove )