The Strain S02E08 Intruders 1080p WEB-DL DD5.1 HEVC/x265-LGC mkv

DOWNLOAD TORRENT

Posted on September 14, 2015 in Series » Misc , verified torrent

Size: 634.82 MB , Seeds: 0 , Peers: 0 ( Updated September 17, 2016 - Refresh )

Could not find any peer statistics from any torrent tracker.
This does not mean the torrent is dead.

* Download via Magnet Link * To download files you need a Bittorrent Client ,

Scrape History ( seeds + peers )

Internal Files

The.Strain.S02E08.Intruders.1080p.WEB-DL.DD5.1.H.265-LGC.mkv
The.Strain.S02E08.Intruders.1080p.WEB-DL.DD5.1.H.265-LGC.mkv   634.59 MB

Hash Code

1adbb8f7c277d9b49700033a428ff70af5bdfaf8

Description

WARNING: High Efficiency Video Coding HEVC x265



This is re-encoded with the new generation video codec HEVC. It will probably not work on your TV or BD player unless it's a recent one that supports x265 ! (or unless you plug a computer to your TV via HDMI)

You can try MPC-HC and Ninite K-Lite codecs

(This player/codec pack might work for old or week PC`s because of it's low CPU) -> https://ninite.com/klitecodecs/



or download the x264 version



Bit Bigger for Richer Sound



SCREENSHOT



The.Strain.S02E08.Intruders.1080p.WEB-DL.DD5.1.H.265-LGC.mkv

Format : Matroska

Format version : Version 2

File size : 635 MiB

Duration : 43mn 59s

Overall bit rate : 2 017 Kbps

Encoded date : UTC

Writing application : HandBrake 0.10.2 2015060900

Writing library : Lavf55.12.0



Video

ID : 1

Format : HEVC

Format/Info : High Efficiency Video Coding

Format profile : [email protected]@Main

Codec ID : V_MPEGH/ISO/HEVC

Duration : 43mn 59s

Bit rate : 1 593 Kbps

Width : 1 904 pixels

Height : 1 072 pixels

Display aspect ratio : 16:9

Original display aspect rat : 16:9

Frame rate mode : Constant

Frame rate : 23.976 fps

Color space : YUV

Chroma subsampling : 4:2:0

Bit depth : 8 bits

Bits/(Pixel*Frame) : 0.033

Stream size : 501 MiB (79%)

Writing library : x265 1.5:[Windows][GCC 4.9.0][64 bit]

Encoding settings : wpp / ctu=32 / tu-intra-depth=1 / tu-inter-depth=1 / me=0 / subme=0 / merange=25 / no-rect / no-amp / max-merge=2 / temporal-mvp / early-skip / no-fast-cbf / rdpenalty=0 / no-tskip / no-tskip-fast / strong-intra-smoothing / no-lossless / no-cu-lossless / no-constrained-intra / fast-intra / open-gop / interlace=0 / keyint=240 / min-keyint=24 / scenecut=0 / rc-lookahead=10 / bframes=4 / bframe-bias=0 / b-adapt=0 / ref=1 / no-weightp / no-weightb / aq-mode=0 / aq-strength=0.00 / cbqpoffs=0 / crqpoffs=0 / rd=2 / psy-rd=0.30 / psy-rdoq=0.00 / no-signhide / lft / no-sao / no-sao-non-deblock / b-pyramid / no-cutree / rc=2 / pass / bitrate=1630 / qcomp=0.60 / qpmin=0 / qpmax=51 / qpstep=4 / cplxblur=20.0 / qblur=0.5 / ipratio=1.40 / pbratio=1.30

Default : Yes

Forced : No

Color range : Limited

Color primaries : BT.709

Transfer characteristics : BT.709

Matrix coefficients : BT.709



Audio

ID : 2

Format : AC-3

Format/Info : Audio Coding 3

Mode extension : CM (complete main)

Format settings, Endianness : Big

Codec ID : A_AC3

Duration : 43mn 59s

Bit rate mode : Constant

Bit rate : 384 Kbps

Channel(s) : 6 channels

Channel positions : Front: L C R, Side: L R, LFE

Sampling rate : 48.0 KHz

Compression mode : Lossy

Stream size : 121 MiB (19%)

Title : Surround

Language : English

Default : Yes

Forced : No



Text

ID : 3

Format : ASS

Codec ID : S_TEXT/ASS

Codec ID/Info : Advanced Sub Station Alpha

Compression mode : Lossless

Language : English

Default : Yes

Forced : No



SOURCE: The.Strain.S02E08.Intruders.1080p.WEB-DL.DD5.1.H.264-Juggalotus

Torrent location

http://kat.cr/the-strain-s02e08-intruders-1080p-web-dl-dd5-1-hevc-x265-lgc-mkv-t11224347.html

Trackers

Refresh Leechers : Updated September 17, 2016

1. udp://open.demonii.com:1337/announce

2. udp://tracker.publicbt.com:80/announce

3. udp://tracker.openbittorrent.com:80/announce

4. udp://tracker.istole.it:80/announce

5. udp://9.rarbg.me:2710/announce

6. udp://tracker.opentrackr.org:1337/announce

Comments

You must log in to add a comment.

Embed Code

Sharing Widget

Top Series ( auto generated report )

FILENAME SIZE SEEDS PEERS ADDED UPD
[i] The.Blacklist.S04E17.WEB-DL.x264-FUM[ettv] 295.4 MB 4171 1196 3 days 2 days
[i] The.Blacklist.S04E16.WEB-DL.x264-FUM[ettv] 296.5 MB 3814 884 3 days 2 days
[i] The.Blacklist.S04E16.HDTV.x264-SVA[eztv].mkv 263.79 MB 3392 596 4 days 3 days
[i] Fargo.S03E01.WEBRip.x264-FUM[ettv] 339.35 MB 2815 698 4 days 3 days
[i] Doctor.Who.2005.S10E02.720p.HDTV.x264-FoV[ettv] 956.5 MB 2712 678 2 days 1 day
[i] The.Blacklist.S04E17.HDTV.x264-FLEET[eztv].mkv 260.04 MB 2292 350 4 days 3 days
[i] Scandal.US.S06E11.HDTV.x264-SVA[eztv].mkv 247.04 MB 2254 450 4 days 3 days
[i] The.Last.Kingdom.S02E06.HDTV.x264-MTB[ettv] 356.5 MB 2238 405 4 days 3 days
[i] Survivor.S34E07.HDTV.x264-CROOKS[ettv] 821.28 MB 1736 586 4 days 3 days
[i] Doctor.Who.2005.S10E02.HDTV.x264-MTB[ettv] 324.33 MB 1544 231 2 days 1 day