War Dogs 2016 READNFO CAM X264 AC3 TiTAN

DOWNLOAD TORRENT

Posted on August 26, 2016 in Movies » Comedy , verified torrent

Size: 699.65 MB , Seeds: 7 , Peers: 0 ( Updated October 29, 2016 - Refresh )

* Download via Magnet Link * To download files you need a Bittorrent Client ,

Scrape History ( seeds + peers )

Internal Files

War Dogs 2016 READNFO CAM X264 AC3 TiTAN
Torrent Downloaded From TorrentsGroup.com.txt   143 Byte
War Dogs 2016 READNFO CAM X264 AC3 TiTAN.mkv   699.12 MB
War Dogs 2016 READNFO CAM X264 AC3 TiTAN.nfo   3.34 KB

Hash Code

1ea422bb94e44f1303b39fd967ca9d8f9de3df21

Description

SCREENSHOT

presents

SCREENSHOT

http://www.imdb.com/title/tt2005151/



Found this source labeled a TS, not sure if audio is line, it is damn good so maybe it is, but decided to stay with cam. movie is complete no camera movement, but as all cams is dark throughout. did what i could to brighten up.

your probably not gonna watch on your 60 inch, but on smaller screens is very watchable. also has hard-coded English subs thru-ought.



General



Format : Matroska

Format version : Version 2

File size : 699 MiB

Duration : 1h 47mn

Overall bit rate mode : Variable

Overall bit rate : 913 Kbps



Video

ID : 1

Format : AVC

Format/Info : Advanced Video Codec

Format profile : [email protected]/* */

Format settings, CABAC : Yes

Format settings, ReFrames : 3 frames

Codec ID : V_MPEG4/ISO/AVC

Duration : 1h 47mn

Bit rate mode : Variable

Bit rate : 767 Kbps

Maximum bit rate : 40.0 Mbps

Width : 688 pixels

Height : 272 pixels

Display aspect ratio : 2.529

Frame rate mode : Constant

Frame rate : 25.000 fps

Color space : YUV

Chroma subsampling : 4:2:0

Bit depth : 8 bits

Scan type : Progressive

Bits/(Pixel*Frame) : 0.164

Stream size : 587 MiB (84%)

Default : Yes

Forced : No

Color primaries : BT.709

Transfer characteristics : BT.709

Matrix coefficients : BT.709



Audio

ID : 2

Format : AC-3

Format/Info : Audio Coding 3

Mode extension : CM (complete main)

Format settings, Endianness : Big

Codec ID : A_AC3

Duration : 1h 47mn

Bit rate mode : Constant

Bit rate : 128 Kbps

Channel(s) : 2 channels

Channel positions : Front: L R

Sampling rate : 44.1 KHz

Bit depth : 16 bits

Compression mode : Lossy

Stream size : 98.0 MiB (14%)

Language : English

Default : Yes

Forced : No

Torrent location

http://extra-to.pbproxy.red/torrent/5131297/War+Dogs+2016+READNFO+CAM+X264+AC3+TiTAN.html

Trackers

Refresh Leechers : Updated October 29, 2016

1. udp://tracker.coppersurfer.tk:6969/announce

2. udp://tracker.leechers-paradise.org:6969/announce

3. udp://tracker.coppersurfer.tk:80/announce

4. udp://tracker.coppersurfer.tk:6969

5. udp://p4p.arenabg.ch:1337/announce

6. udp://p4p.arenabg.com:1337/announce

7. udp://tracker.leechers-paradise.org:6969

8. udp://zer0day.ch:1337/announce

9. udp://eddie4.nl:6969/announce

10. udp://thetracker.org:80/announce

11. udp://explodie.org:6969/announce

12. udp://tracker.aletorrenty.pl:2710/announce

13. udp://torrent.gresille.org:80/announce

14. udp://9.rarbg.me:2710/announce

15. udp://9.rarbg.to:2710/announce

Comments

You must log in to add a comment.

Embed Code

Sharing Widget

Related torrents

FILENAME SIZE SEEDS PEERS ADDED UPD
[i] War Dogs 2016 READNFO CAM X264 AC3 TiTAN.[PRiME] 707.2 MB 12 3 9 months 6 months

Top Movies ( auto generated report )

FILENAME SIZE SEEDS PEERS ADDED UPD
[i] Logan (2017) [1080p] [YTS AG] 2.09 GB 12543 5989 4 days 1 day
[i] Logan (2017) [720p] [YTS AG] 1014.33 MB 11245 8727 4 days 23 hours
[i] John Wick Chapter 2 (2017) 720p WEB-DL 950MB - MkvCage.torrent 953.3 MB 2471 671 3 days 8 hours
[i] John.Wick.Chapter.2.2017.720p.WEB-DL.XviD.AC3-FGT 3.58 GB 4796 10440 3 days 20 hours
[i] Aftermath (2017) [720p] [YTS AG] 693.73 MB 3337 1985 1 day 11 hours
[i] Aftermath (2017) [1080p] [YTS AG] 1.43 GB 3144 1757 1 day 11 hours
[i] The Assignment (2016) [720p] [YTS AG] 701.82 MB 2784 1711 1 day 11 hours
[i] John.Wick.Chapter.2.2017.WEB-DL.x264-FGT 1.05 GB 2473 905 3 days 1 day
[i] Free.Fire.2016.1080p.WEB-DL.DD5.1.H264-FGT 3.11 GB 2466 973 3 days 1 day
[i] The Assignment (2016) [1080p] [YTS AG] 1.45 GB 2050 1292 1 day 11 hours