Bit Torrent Scene a public file sharing platform Home Categories Blog About

advertising ( remove )

War Dogs 2016 READNFO CAM X264 AC3 TiTAN

DOWNLOAD TORRENT

Posted on August 26, 2016 in Movies » Comedy , verified torrent

Size: 699.65 MB , Seeds: 39 , Peers: 12 ( Updated August 27, 2016 - Refresh )

* Download via Magnet Link * To download files you need a Bittorrent Client ,

advertising ( remove )

External Info

Trailer | Wikipedia | Other Info

Internal Files

War Dogs 2016 READNFO CAM X264 AC3 TiTAN
Torrent Downloaded From TorrentsGroup.com.txt   143 Byte
War Dogs 2016 READNFO CAM X264 AC3 TiTAN.mkv   699.12 MB
War Dogs 2016 READNFO CAM X264 AC3 TiTAN.nfo   3.34 KB

Hash Code

1ea422bb94e44f1303b39fd967ca9d8f9de3df21

Description

SCREENSHOT

presents

SCREENSHOT

https://www.imdb.com/title/tt2005151/



Found this source labeled a TS, not sure if audio is line, it is damn good so maybe it is, but decided to stay with cam. movie is complete no camera movement, but as all cams is dark throughout. did what i could to brighten up.

your probably not gonna watch on your 60 inch, but on smaller screens is very watchable. also has hard-coded English subs thru-ought.



General



Format : Matroska

Format version : Version 2

File size : 699 MiB

Duration : 1h 47mn

Overall bit rate mode : Variable

Overall bit rate : 913 Kbps



Video

ID : 1

Format : AVC

Format/Info : Advanced Video Codec

Format profile : [email protected]/* */

Format settings, CABAC : Yes

Format settings, ReFrames : 3 frames

Codec ID : V_MPEG4/ISO/AVC

Duration : 1h 47mn

Bit rate mode : Variable

Bit rate : 767 Kbps

Maximum bit rate : 40.0 Mbps

Width : 688 pixels

Height : 272 pixels

Display aspect ratio : 2.529

Frame rate mode : Constant

Frame rate : 25.000 fps

Color space : YUV

Chroma subsampling : 4:2:0

Bit depth : 8 bits

Scan type : Progressive

Bits/(Pixel*Frame) : 0.164

Stream size : 587 MiB (84%)

Default : Yes

Forced : No

Color primaries : BT.709

Transfer characteristics : BT.709

Matrix coefficients : BT.709



Audio

ID : 2

Format : AC-3

Format/Info : Audio Coding 3

Mode extension : CM (complete main)

Format settings, Endianness : Big

Codec ID : A_AC3

Duration : 1h 47mn

Bit rate mode : Constant

Bit rate : 128 Kbps

Channel(s) : 2 channels

Channel positions : Front: L R

Sampling rate : 44.1 KHz

Bit depth : 16 bits

Compression mode : Lossy

Stream size : 98.0 MiB (14%)

Language : English

Default : Yes

Forced : No

Torrent location

https://peertorrent.com/torrent/5131297/War+Dogs+2016+READNFO+CAM+X264+AC3+TiTAN.html

Scrape History ( seeds + peers )

Trackers

Refresh Leechers : Updated August 27, 2016

1. udp://tracker.coppersurfer.tk:6969/announce

2. udp://tracker.leechers-paradise.org:6969/announce

3. udp://tracker.coppersurfer.tk:80/announce

4. udp://tracker.coppersurfer.tk:6969

5. udp://p4p.arenabg.ch:1337/announce

6. udp://p4p.arenabg.com:1337/announce

7. udp://tracker.leechers-paradise.org:6969

8. udp://zer0day.ch:1337/announce

9. udp://eddie4.nl:6969/announce

10. udp://thetracker.org:80/announce

11. udp://explodie.org:6969/announce

12. udp://tracker.aletorrenty.pl:2710/announce

13. udp://torrent.gresille.org:80/announce

14. udp://9.rarbg.me:2710/announce

15. udp://9.rarbg.to:2710/announce

Comments

You must log in to add a comment.

Embed Code

Sharing Widget

Related torrents

FILENAME SIZE SEEDS PEERS ADDED UPD
[i] War Dogs 2016 READNFO CAM X264 AC3 TiTAN.[PRiME] 707.2 MB 66 25 2 days 2 days

Top Movies ( auto generated report )

FILENAME SIZE SEEDS PEERS ADDED UPD
[i] Now.You.See.Me.2.2016.1080p.BluRay.x264.AC3-JYK 2.93 GB 5623 2377 2 days 4 hours
[i] Jason.Bourne.720p.HDTC.X264-NUKU
Movies - Action , Quality: Audio 8/10 - Video 8/10
2.49 GB 8305 4566 1 day 4 hours
[i] Blood.Father.2016.HDRip.XViD-ETRG 711.3 MB 7851 3968 3 days 1 day
[i] The Conjuring 2 (2016) 720p BluRay - 1.2GB - ShAaNiG 1.2 GB 7125 5490 2 days 1 day
[i] Jason Bourne (2016) 720p HDTC 850MB - MkvCage 904.3 MB 3847 1228 2 days 6 hours
[i] Blood.Father.2016.720p.WEBRip.x264.AAC-ETRG 662.3 MB 4159 2580 2 days 1 day
[i] War Dogs 2016 HD-TS x264-CPG 2.1 GB 3948 3105 2 days 1 day
[i] Our.Kind.of.Traitor.2016.HDRip.XviD.AC3-EVO 1.41 GB 4183 3294 1 day 4 hours
[i] The.Conjuring.2.2016.720p.BRRip.x264.AAC-ETRG 1004.3 MB 3885 3190 2 days 1 day
[i] The.Conjuring.2.2016.BRRip.XViD.AC3-ETRG 1.41 GB 2498 2579 2 days 1 day
advertising ( remove )