X-Men Days of Future Past (2014) 2160p UltraHD Blu-ray HEVC x265 DTS-HD 7.1 Multi -DDR

DOWNLOAD TORRENT

Posted on August 16, 2016 in Movies » Sci-Fi , verified torrent

Size: 30.54 GB , Seeds: 11 , Peers: 8 ( Updated May 25, 2017 - Refresh )

* Download via Magnet Link * To download files you need a Bittorrent Client ,

Scrape History ( seeds + peers )

Internal Files

X-Men Days of Future Past (2014) 2160p UltraHD Blu-ray HEVC x265 DTS-HD 7.1 Multi -DDR
X-Men Days of Future Past (2014) 2160p UltraHD Blu-ray HEVC x265 DTS-HD 7.1 Multi -DDR.mkv   30.28 GB
sample - X-Men Days of Future Past (2014) 2160p UltraHD Blu-ray HEVC x265 DTS-HD 7.1 Multi -DDR.mkv   265.8 MB
A DDR Release !!.txt   287 Byte

Hash Code

9c032c5078754dc8848e69054b426931da71a5e2

Description

SCREENSHOT

- HollyWooD Movie-



X-Men

Days Of Future Past

** 2014 **

UHD 2160p / Blu-ray 4K Rip / HEVC x265

English DTS-HDMA 7.1

French DTS 5.1

Hindi AC3 5.1

Urdu AC3 5.1

Tamil AC3 5.1

Telugu AC3 5.1



English & French subs



Recommended configuration for PC playback :- Latest Fast I7 or Xeon CPU & GPU + > 8GB of DRAM

Play tested on PC with ASUS 4K + Nvidia GTX980 with Potplayer & MPC-HD



(*** VLC will not play this rip ***)



TV Playback tested on:

- Samsung SUHD 4K TV







SCREENSHOT



SCREENSHOT SCREENSHOT SCREENSHOT SCREENSHOT SCREENSHOT SCREENSHOT SCREENSHOT SCREENSHOT SCREENSHOT SCREENSHOT SCREENSHOT



Source : Fr UHD 4K Blu-ray ripped with HDFury by Zeus

File size : 30.3 GiB

Duration : 2h 11mn

Overall bit rate : 32.9 Mbps

Movie name : X-Men 4K UHD Bluray

Encoded date : UTC 2016-08-15 22:30:44

Writing application : mkvmerge v9.2.0 ('Photograph') 64bit





Video

Format : HEVC

Format/Info : High Efficiency Video Coding

Format profile : [email protected]/* [email protected]

Codec ID : V_MPEGH/ISO/HEVC

Duration : 2h 11mn

Bit rate : 24.9 Mbps

Width : 3 840 pixels

Height : 1 600 pixels

Display aspect ratio : 2.40:1

Frame rate mode : Constant

Frame rate : 23.976 (24000/1001) fps

Color space : YUV

Chroma subsampling : 4:2:0

Bit depth : 8 bits

Bits/(Pixel*Frame) : 0.169

Stream size : 22.9 GiB (76%)

Writing library : x265 1.9:[Windows][GCC 4.9.0][64 bit] 8bit

Language : English

Default : Yes

Forced : No

Color range : Limited

Color primaries : BT.709

Transfer characteristics : BT.709

Matrix coefficients : BT.709



Audio

Audio #1

ID : 2

Format : DTS

Format/Info : Digital Theater Systems

Format profile : MA / ES Matrix / Core

Mode : 16

Format settings, Endianness : Big

Codec ID : A_DTS

Duration : 2h 11mn

Bit rate mode : Variable / Constant / Constant

Bit rate : 5 490 Kbps / 1 509 Kbps / 1 509 Kbps

Channel(s) : 8 channels / 7 channels / 6 channels

Channel positions : Front: L C R, Side: L R, Back: L R, LFE / Front: L C R, Side: L R, Back: C, LFE / Front: L C R, Side: L R, LFE

Sampling rate : 48.0 KHz

Frame rate : 93.750 fps (512 spf)

Bit depth : 24 bits

Compression mode : Lossless / Lossy / Lossy

Delay relative to video : 967ms

Stream size : 5.05 GiB (17%)

Language : English

Default : Yes

Forced : No



Audio #2

ID : 3

Format : DTS

Format/Info : Digital Theater Systems

Mode : 16

Format settings, Endianness : Big

Codec ID : A_DTS

Duration : 2h 11mn

Bit rate mode : Constant

Bit rate : 768 Kbps

Channel(s) : 6 channels

Channel positions : Front: L C R, Side: L R, LFE

Sampling rate : 48.0 KHz

Frame rate : 93.750 fps (512 spf)

Bit depth : 24 bits

Compression mode : Lossy

Delay relative to video : 417ms

Stream size : 723 MiB (2%)

Title : DTS French

Language : French

Default : No

Forced : No



Audio #3

ID : 4

Format : AC-3

Format/Info : Audio Coding 3

Mode extension : CM (complete main)

Format settings, Endianness : Big

Codec ID : A_AC3

Duration : 2h 11mn

Bit rate mode : Constant

Bit rate : 448 Kbps

Channel(s) : 6 channels

Channel positions : Front: L C R, Side: L R, LFE

Sampling rate : 48.0 KHz

Frame rate : 31.250 fps (1536 spf)

Compression mode : Lossy

Delay relative to video : 417ms

Stream size : 422 MiB (1%)

Title : AC3 Hindi

Language : Hindi

Default : No

Forced : No



Audio #4

ID : 5

Format : AC-3

Format/Info : Audio Coding 3

Mode extension : CM (complete main)

Format settings, Endianness : Big

Codec ID : A_AC3

Duration : 2h 11mn

Bit rate mode : Constant

Bit rate : 448 Kbps

Channel(s) : 6 channels

Channel positions : Front: L C R, Side: L R, LFE

Sampling rate : 48.0 KHz

Frame rate : 31.250 fps (1536 spf)

Compression mode : Lossy

Delay relative to video : 417ms

Stream size : 422 MiB (1%)

Title : AC3 Urdu

Language : Urdu

Default : No

Forced : No



Audio #5

ID : 6

Format : AC-3

Format/Info : Audio Coding 3

Mode extension : CM (complete main)

Format settings, Endianness : Big

Codec ID : A_AC3

Duration : 2h 11mn

Bit rate mode : Constant

Bit rate : 448 Kbps

Channel(s) : 6 channels

Channel positions : Front: L C R, Side: L R, LFE

Sampling rate : 48.0 KHz

Frame rate : 31.250 fps (1536 spf)

Compression mode : Lossy

Delay relative to video : 417ms

Stream size : 422 MiB (1%)

Title : AC3 Tamil

Language : Tamil

Default : No

Forced : No



Audio #6

ID : 7

Format : AC-3

Format/Info : Audio Coding 3

Mode extension : CM (complete main)

Format settings, Endianness : Big

Codec ID : A_AC3

Duration : 2h 11mn

Bit rate mode : Constant

Bit rate : 448 Kbps

Channel(s) : 6 channels

Channel positions : Front: L C R, Side: L R, LFE

Sampling rate : 48.0 KHz

Frame rate : 31.250 fps (1536 spf)

Compression mode : Lossy

Delay relative to video : 417ms

Stream size : 422 MiB (1%)

Title : AC3 Tekugu

Language : Telugu

Default : No

Forced : No



Text #1

ID : 8

Format : PGS

Muxing mode : zlib

Codec ID : S_HDMV/PGS

Codec ID/Info : Picture based subtitle format used on BDs/HD-DVDs

Duration : 2h 1mn

Bit rate : 8 456 bps

Count of elements : 2574

Stream size : 7.34 MiB (0%)

Language : English

Default : Yes

Forced : No



Text #2

ID : 9

Format : PGS

Muxing mode : zlib

Codec ID : S_HDMV/PGS

Codec ID/Info : Picture based subtitle format used on BDs/HD-DVDs

Duration : 2h 10mn

Bit rate : 6 806 bps

Count of elements : 2448

Stream size : 6.35 MiB (0%)

Language : French

Default : No

Forced : No



Chapters = YES

Sample : Included



A DDR Exclusive Encode

Trackers

Refresh Leechers : Updated May 25, 2017

1. udp://tracker.coppersurfer.tk:6969/announce

2. udp://thetracker.org:80/announce

3. udp://tracker.coppersurfer.tk:6969/announce

4. udp://tracker.leechers-paradise.org:6969/announce

5. udp://eddie4.nl:6969/announce

6. udp://zer0day.ch:1337/announce

7. udp://tracker.sktorrent.net:6969/announce

8. udp://9.rarbg.me:2710/announce

9. udp://9.rarbg.to:2710/announce

10. udp://torrent.gresille.org:80/announce

11. udp://tracker.aletorrenty.pl:2710/announce

12. udp://tracker.piratepublic.com:1337/announce

13. udp://tracker.opentrackr.org:1337/announce

14. udp://explodie.org:6969/announce

15. udp://p4p.arenabg.ch:1337/announce

Comments

You must log in to add a comment.

Embed Code

Sharing Widget

Related torrents

FILENAME SIZE SEEDS PEERS ADDED UPD
[i] [HorribleSubs] 91 Days - 10 [720p].mkv 330.32 MB 1180 243 10 months 10 months
[i] [HorribleSubs] DAYS - 12 [720p].mkv 328.32 MB 800 57 10 months 10 months
[i] [HorribleSubs] 91 Days - 10 [1080p].mkv 554.65 MB 650 44 10 months 10 months
[i] [HorribleSubs] DAYS - 12 [1080p].mkv 551.65 MB 453 30 10 months 10 months
[i] [Ohys-Raws] Days - 12 (MBS 1280x720 x264 AAC).mp4 282.15 MB 435 60 10 months 10 months
[i] [Leopard-Raws] Days - 12.5 RAW (MBS 1280x720 x264 AAC).mp4 586.3 MB 343 74 10 months 10 months
[i] [Ohys-Raws] 91 Days - 11 (TBS 1280x720 x264 AAC).mp4 258.65 MB 331 45 10 months 10 months
[i] [HorribleSubs] 91 Days - 10 [480p].mkv 150.07 MB 321 108 10 months 10 months
[i] [HorribleSubs] 91 Days - 11 [480p].mkv 150.07 MB 278 31 10 months 10 months
[i] [HorribleSubs] DAYS - 12 [480p].mkv 149.07 MB 277 29 10 months 10 months

Top Movies ( auto generated report )

FILENAME SIZE SEEDS PEERS ADDED UPD
[i] Going in Style (2017) [720p] [YTS AG] 713.31 MB 7555 4189 3 days 2 days
[i] Going in Style (2017) [1080p] [YTS AG] 1.47 GB 6548 3336 3 days 2 days
[i] The Circle (2017) [1080p] [YTS AG] 1.68 GB 4522 2933 2 days 1 day
[i] The Circle (2017) [720p] [YTS AG] 812.53 MB 4292 3059 2 days 1 day
[i] Colossal (2016) [720p] [YTS AG] 797.03 MB 2620 1311 4 days 3 days
[i] S W A T - Under Siege (2017) [720p] [YTS AG] 665.25 MB 2586 1468 3 days 2 days
[i] Colossal (2016) [1080p] [YTS AG] 1.66 GB 2497 1293 4 days 3 days
[i] Sleight (2016) [720p] [YTS AG] 658.87 MB 1861 1053 4 days 3 days
[i] S W A T - Under Siege (2017) [1080p] [YTS AG] 1.36 GB 1817 972 3 days 2 days
[i] The Girl from the Song (2017) [1080p] [YTS AG] 1.56 GB 1472 891 2 days 1 day